Główna Torrenty Wstaw Wstaw Szybkie wstawianie Prośby Tłumaczenia Poradnik Załoga Hala sławy Premium Forum
Enable / Włącz Javascript
 Widok 
 Kategorie 
 TNT Torrent w sieci 
 Top 10 użytkowników 
 Niemożliwe The Impossible (2012) [DVDSCR.XviD.AC3] [Napisy PL]

Niemożliwe The Impossible (2012) [DVDSCR.XviD.AC3] [Napisy PL]
Kategoria: » » »
Dodane: 13/01/2013
Rozmiar: 1.77 GB
Uploader: elladajarek (1)
seed(ów): 69
leecher(ów): 1
Pobrane: 13707
Komentarzy: 42
Pobierz Torrent Pobierz Torrent
Pobierz [Magnet] Pobierz [Magnet]
Oglądaj online Oglądaj online
Obserwuj
Raportuj
Gatunek: dramat/Thriller/Akcja
Produkcja: Hiszpania
Premiera: 25 stycznia 2013 (Polska) 9 września 2012 (świat)
Reżyseria: Juan Antonio Bayona
Scenariusz: Sergio G. Sánchez

Opis filmu

"Niemożliwe" to film opowiadający o prawdziwych wydarzeniach mających miejsce w Tajlandii w 2004 roku. Produkcja przedstawia klęskę żywiołową (tsunami) spowodowaną podwodnym trzęsieniem ziemi o sile 9,1 w skali Richtera, którego hipocentrum znajdowało się kilka kilometrów pod dnem Oceanu Indyjskiego. Jednak zaraz na początku muszę zaznaczyć, że obraz Juana Antonio Bayona nie jest zwykłą, suchą kroniką wydarzeń. Nie przybliży nam wspomnianej katastrofy, nie poda statystyk, czyli ile ludzi zginęło od utonięcia, a ile zmarło z powodu obrażeń, bądź liczbę ocalonych. Nie. W tym dziele chodzi o coś innego. Przedstawia tragedię z punktu widzenia tradycyjnej, kochającej się rodziny. Z perspektywy ofiar, to znaczy ludzi, którzy zdani na własne siły walczyli o przetrwanie, pomagając sobie na wzajem w trudnych chwilach. Film skupia się na ich zmaganiach, cierpieniu oraz bólu. Pokazuje coś, o czym często zapominamy, a co jest w zasadzie najważniejsze - zdolność do poświęceń, dobroć, jak również walkę o własne i cudze życie. Jego przekaz jest wyraźny oraz oczywisty. Chociaż ludzie potrafią zabijać i krzywdzić się na wzajem, to także jednoczyć w obliczu śmierci oraz pomagać sobie w ekstremalnych sytuacjach. Ukazuje, że wspólnymi siłami i wytrwałością jesteśmy w stanie pokonać wszystkie przeszkody. Twórcy na przykładzie swoich bohaterów próbują nam powiedzieć, że nigdy nie należy tracić nadziei, nieważne, jak niewielkie mamy szanse na odnalezienie ukochanej osoby, całej i zdrowej.

Dane techniczne

Format : AVI
Format/Info : Audio Video Interleave
File size : 1.77 GiB
Duration : 1h 53mn
Overall bit rate : 2 228 Kbps
Video #0
ID : 0
Format : MPEG-4 Visual
Format profile : Advanced Simple@L5
Format settings, BVOP : No
Format settings, QPel : No
Format settings, GMC : No warppoints
Format settings, Matrix : Default (MPEG)
Codec ID : XVID
Codec ID/Hint : XviD
Duration : 1h 53mn
Bit rate : 1 768 Kbps
Width : 720 pixels
Height : 304 pixels
Display aspect ratio : 2.35:1
Frame rate : 29.970 fps
Color space : YUV
Chroma subsampling : 4:2:0
Bit depth : 8 bits
Scan type : Progressive
Compression mode : Lossy
Bits/(Pixel*Frame) : 0.270
Stream size : 1.40 GiB (79%)
Writing library : XviD 1.2.1 (UTC 2008-12-04)
Audio #1
ID : 1
Format : AC-3
Format/Info : Audio Coding 3
Mode extension : CM (complete main)
Format settings, Endianness : Big
Codec ID : 2000
Duration : 1h 53mn
Source duration : 1h 53mn
Bit rate mode : Constant
Bit rate : 448 Kbps
Channel(s) : 2 channels
Channel positions : Front: L R
Sampling rate : 48.0 KHz
Bit depth : 16 bits
Compression mode : Lossy
Stream size : 364 MiB (20%)
Alignment : Aligned on interleaves
Interleave, duration : 33 ms (1.00 video frame)


Napisy wtopione - KinoMania
Dostępne napisy
Brak napisów
Szczegóły torrenta
Tracker http://fr33dom.h33t.com:3310/announce
Multitracker [ Pokaż ]
Kategoria: » » » [Zgłoś błąd]
Dodane 13-01-2013
Ostatnie Uaktualnienie 23-05-2013
Podziękowali:
109 użytkowników 
[ Pokaż ]
Podziękuj!
Pokaż / Ukryj pliki:
Nazwa pliku Rozmiar
The Impossible 2012 DVDscr AC3 XviD.avi 1.77 GB
1 plik

<< Poprz.      Następna >>
1 - 20 | 21 - 40 | 41 - 42



Coobra15 (1)
dziękuje
07/05/2013 21:26:51 # 0 0


focus99 (8)
Film spoko.
21/04/2013 21:50:43 # 0 0


cwiet94 (1)
Dzięki wielkie!
04/03/2013 16:46:02 # 0 0


marecki2012 (1)
Dzięki polecam.!!
26/02/2013 22:10:17 # 0 0


Zenek1020 (1)
Dziękuje
22/02/2013 18:39:44 # 0 0


jarozum (1)
dzięks
22/02/2013 11:19:45 # 0 0


mamun (1)
THX
21/02/2013 17:06:18 # 0 0


justaipiotr (1)
dzięki
20/02/2013 22:21:03 # 0 0


coxi84 (1)
thx
20/02/2013 16:46:10 # 0 0


leszek9929 (1)
Dzięki
19/02/2013 17:15:11 # 0 0


marcsl (1)
dzięki , dobra wersja
18/02/2013 11:14:01 # 0 0


warmiasa (1)
Dziękuje i pozdrawiam
16/02/2013 23:19:30 # 0 0


123zielik (3)
dzieki
15/02/2013 20:27:24 # 1 0


hsg_91 (1)
thx!
11/02/2013 21:37:21 # 0 0


malcolmia (1)
Dzięki
10/02/2013 22:51:18 # 0 0


gabi60 (1)
dzieki
10/02/2013 20:04:04 # 0 0


boox21 (1)
czesc. sciagnalem ten film ale mam problem - ogladam go tylko na kompu a dysk twardy multimedia go nie rozpoznaje
08/02/2013 12:46:22 # 0 0


laguna100 (1)
dzięki
06/02/2013 18:14:10 # 0 0


irszamar (1)
Dzięki bardzo
04/02/2013 08:01:40 # 0 0


macius31 (1)
ok film dzieki
03/02/2013 12:06:45 # 0 0

1 - 20 | 21 - 40 | 41 - 42
<< Poprz.      Następna >>